Free Websites at Nation2.com


Total Visits: 1540
Green Street Hooligans 1080p Latinopeoplemeet

green street hooligans 1080p latinopeoplemeet

 

Green Street Hooligans 1080p Latinopeoplemeet >>> http://bit.ly/2nm0ami

 

 

 

 

 

 

 

 

 

 

 

 

 

 

 

 

 

 

 

 

 

 

 

 

 

 

 

 

 

 

 

 

 

 

 

 

 

 

 

 

 

 

 

 

 

 

 

 

 

 

 

 

fcca2f3a81

UCQQ 2 Green Street Hooligans 2 BD720P .. 2015 BTBT1080P720P Copyright 2014 BT . IHAOWA . Jay O'Brien / Lexi Alexander / Dougie Brimson. 2009. Johnson: T. > BT > Green.Street.Hooligans.2005.720p.BluRay.H264.AAC-RARBG Green.Street.Hooligans.2005.720p.BluRay.H264.AAC-RARBG (2005) 8.1 1.31GB HASH3a8e505fafe1e1f9df175dcac2ab2203e4366633 English.srt80.1KB Green.Street.Hooligans.2005.720p.BluRay.H264.AAC-RARBG.mp41.31GB Green.Street.Hooligans.2005.720p.BluRay.H264.AAC-RARBG.nfo3.97KB RARBG.COM.mp4992.93KB RARBG.COM.txt34B Elijah Wood Charlie Hunnam GSE GSEGSE . Johnson .

 

2009. : Jesse V. kf#bttiantang.net . JohnsonGraham McTavishTreva Etienne2 Green Street Hooligans 2BD720P(www.niubaobao.cc)BT,ed2k,,2 Green Street Hooligans 22 Green Street Hooligans 22 Green Street Hooligans 2,2 Green Street Hooligans 2 . / Graham McTavish / Treva Etienne . 2015 BTBT1080P720P Copyright 2014 BT .

 

IHAOWA,,, .. Copyright 2013-2017 xixiHD.com Email:adminxixihd.com . HOME MP4 MOVIES MKV MOVIES 2016 MOVIES 2015 MOVIES 1080P MOVIES 720P MOVIES WORLD CUP 2014 RECOMMENDED MOVIES CONTACT SITEMAP. >>2(Green Street Hooligans 2)Bluray 1080p DTSHD x264[Blu-ray]. T. 94 mins. 2 Green Street Hooligans 2 . 2(Green Street Hooligans 2)Bluray 1080p DTSHD x264[Blu-ray]. 2(Green Street Hooligans 2)Bluray 1080p DTSHD x264[Blu-ray] 2012-04-06 09:43:25 2012-04-06 09:43:25 2(Green Street Hooligans 2)Bluray 1080p DTSHD x264[Blu-ray] 2.Green.Street.Hooligans2.2009.Bluray.1080p.DTSHD.x264-CHD.AutoSplit.rar[1.88MB]2.Green.Street.Hooligans2.2009.Bluray.1080p.DTSHD.x264-CHD.mkv[2GB]2.Green.Street.Hooligans2.2009.Bluray.1080p.DTSHD.x264-CHD.nfo[6.93KB]2.Green.Street.Hooligans2.2009.Bluray.1080p.DTSHD.x264-CHD.sample.mkv[100.28MB] :2(Green Street Hooligans 2)Bluray 1080p DTSHD x264[Blu-ray] qqdl://ZWQyazovL3xmaWxlfCU1QmloYW93YS5jb20lNUQlRTglQjYlQjMlRTclOTAlODMlRTYlQjUlODElRTYlQjAlOTMyLkdyZWVuLlN0cmVldC5Ib29saWdhbnMyLjIwMDkuQmx1cmF5LjEwODBwLkRUU0hELngyNjQtQ0hELkF1dG9TcGxpdC5yYXJ8MTk2ODcxNHw2ZWM0ZmNkMzA4ZjRhYzdhN2E5ZGI4Y2QzNTNlOTEyNnwv qqdl://ZWQyazovL3xmaWxlfCU1QmloYW93YS5jb20lNUQlRTglQjYlQjMlRTclOTAlODMlRTYlQjUlODElRTYlQjAlOTMyLkdyZWVuLlN0cmVldC5Ib29saWdhbnMyLjIwMDkuQmx1cmF5LjEwODBwLkRUU0hELngyNjQtQ0hELm5mb3w3MDk3fDg0OGJiZGQ1Y2RkYmFmZDA4YmQ4OWE4ODZkMDA5N2E3fC8= qqdl://ZWQyazovL3xmaWxlfCU1QmloYW93YS5jb20lNUQlRTglQjYlQjMlRTclOTAlODMlRTYlQjUlODElRTYlQjAlOTMyLkdyZWVuLlN0cmVldC5Ib29saWdhbnMyLjIwMDkuQmx1cmF5LjEwODBwLkRUU0hELngyNjQtQ0hELnNhbXBsZS5ta3Z8MTA1MTQ2MTY2fGUzMjQ3YjIyZjY1MDZhYTNlNGMwMGQ5YTk0ZTUyZTUxfC8= qqdl://ZWQyazovL3xmaWxlfCU1QmloYW93YS5jb20lNUQlRTglQjYlQjMlRTclOTAlODMlRTYlQjUlODElRTYlQjAlOTMyLkdyZWVuLlN0cmVldC5Ib29saWdhbnMyLjIwMDkuQmx1cmF5LjEwODBwLkRUU0hELngyNjQtQ0hELm1rdnw3MDA4ODY3OTcwfDE2Mzc2NDczYzQ1ZDE5OGJmNDY4Y2U3ODY1YjQ1ODkyfC8= .

 

6.0 . / . .. Powered by YIFY-Torrent.org. All Rights Reserved. 3D . WEB-DL 3D . , ed2k://file%5Bihaowa.com%5D%E8%B6%B3%E7%90%83%E6%B5%81%E6%B0%932.Green.Street.Hooligans2.2009.Bluray.1080p.DTSHD.x264-CHD.AutoSplit.rar19687146ec4fcd308f4ac7a7a9db8cd353e9126/ ed2k://file%5Bihaowa.com%5D%E8%B6%B3%E7%90%83%E6%B5%81%E6%B0%932.Green.Street.Hooligans2.2009.Bluray.1080p.DTSHD.x264-CHD.mkv700886797016376473c45d198bf468ce7865b45892/ ed2k://file%5Bihaowa.com%5D%E8%B6%B3%E7%90%83%E6%B5%81%E6%B0%932.Green.Street.Hooligans2.2009.Bluray.1080p.DTSHD.x264-CHD.sample.mkv105146166e3247b22f6506aa3e4c00d9a94e52e51/ ed2k://file%5Bihaowa.com%5D%E8%B6%B3%E7%90%83%E6%B5%81%E6%B0%932.Green.Street.Hooligans2.2009.Bluray.1080p.DTSHD.x264-CHD.nfo7097848bbdd5cddbafd08bd89a886d0097a7/ Ihaowa kaka912 6 6 pdd00 6 6 7 6 6 5 3 zjq222 3 2 4 superD 3 2(Green Street Hooligans 2)Bluray 1080p DTSHD x264[Blu-ray]:e2dk (Bla (Win (Wi (Rose OSS117 (Mart (Ma (Vila (Spa VII (W D 2(Ong 4 Movi (The. .. Jesse V.

 

Jay O'Brien / Lexi Alexander / Dougie Brimson: / Graham McTavish / Treva Etienne: / / /: : : 2009: 94 IMDb: tt1300853Jesse V. 3D . IMDb . 2 Green.Street.Hooligans.2.2009.1080p.BluRay.x264.DTS-FGT 2016-12-24 00:20 0 85 20 2 1080P 6.0 6.0 2009 2009 5.85 GB 2016-12-24 00:20 94 [+] MediaInfo Video ID : 1 Format : AVC Format/Info : Advanced Video Codec Format profile : HighL4.1 Format settings, CABAC : Yes Format settings, ReFrames : 5 frames Codec ID : VMPEG4/ISO/AVC Duration : 1h 30mn Bit rate : 7 772 Kbps Width : 1 920 pixels Height : 1 080 pixels Display aspect ratio : 16:9 Frame rate mode : Constant Frame rate : 23.976 fps Color space : YUV Chroma subsampling : 4:2:0 Bit depth : 8 bits Scan type : Progressive Bits/(Pixel*Frame) : 0.156 Stream size : 4.78 GiB (82%) Writing library : x264 core 67 r1145M d2e1e1c Encoding settings : cabac=1 / ref=5 / deblock=1:-1:-1 / analyse=0x3:0x133 / me=umh / subme=7 / psyrd=1.0:0.0 / mixedref=1 / merange=16 / chromame=1 / trellis=1 / 8x8dct=1 / cqm=0 / deadzone=21,11 / chromaqpoffset=-2 / threads=6 / nr=0 / decimate=0 / mbaff=0 / bframes=3 / bpyramid=1 / badapt=1 / bbias=0 / direct=1 / wpredb=1 / keyint=250 / keyintmin=25 / scenecut=40 / rc=2pass / bitrate=7772 / ratetol=1.0 / qcomp=0.60 / qpmin=10 / qpmax=51 / qpstep=4 / cplxblur=20.0 / qblur=0.5 / ipratio=1.40 / pbratio=1.30 / aq=1:1.00 Language : English Default : Yes Forced : No Audio ID : 2 Format : DTS Format/Info : Digital Theater Systems Mode : 16 Format settings, Endianness : Big Codec ID : ADTS Duration : 1h 30mn Bit rate mode : Constant Bit rate : 1 509 Kbps Channel(s) : 6 channels Channel positions : Front: L C R, Side: L R, LFE Sampling rate : 48.0 KHz Frame rate : 93.750 fps (512 spf) Bit depth : 16 bits Compression mode : Lossy Stream size : 974 MiB (16%) Language : English Default : No Forced : No 20172015-12-15 bug 1 23 3 4 5 63 7 8 9 103 . .. kf#bttiantang.net . 2 Green Street Hooligans 2.

cheap 1080p gaming tv case
breaking bad s05e11 1080p subtitles search
student of the year video songs 1080p backgrounds
hd mp4 1080p tamil video songs free download
skyward sword dolphin 1080p 60 fps video player
doctor who s08e07 720p or 1080p
download running man 152 720p projector
mobile suit gundam unicorn episode 1 720p izle
cm101mmxi fundamentals full izle 720p mkv
top gear special 1080p or 1080i